ANT-MAN.2015.TS.XVID-EVE 720p & 1080p Brrip Yify and Subtitle

1437399418_antman.jpg


antman.jpg

http://www.imdb.com/title/tt0478970/

Armed with a super-suit with the astonishing ability to shrink in scale but increase in strength, con-man Scott Lang must embrace his inner hero and help his mentor, Dr. Hank Pym, plan and pull off a heist that will save the world.

Director: Peyton Reed
Writers: Edgar Wright (screenplay), Joe Cornish (screenplay)
Stars: Paul Rudd, Michael Douglas, Corey Stoll
Genres: Action | Sci-Fi
Country: USA
Language: English

Release Info:

iMdB………..- http://www.imdb.com/title/tt0478970/
RELEASE DATE…- 17 July 2015 (USA)
LANGUAGE…….- English
SUBTiTLES……- N/A
RUNTiME……..- 1h 45 mn
SOURCE………- mrseen thnxs
ViDEO CODEC….- XVID
ViDEO BiTRATE..- 1504 kbps
RESOLUTiON…..- 720 x 304
FRAMERATE……- 29.970 fps
SETTiNGS…….- AVI
AUDiO CODEC….- MP3 2 chnls
AUDiO BiTRATE..- 192 kbps
FiLE SiZE……- 1.21 GB
ENCODER……..- ADAM

Notes:

work done, fixed up the some came movement fixed some of it up using prespective filters, then resized to get the ar correct, ran a few denoise filters turned out nice enjoy guys

the ts audio is not bad either good job jinx and to who were involved!

0WvsngJ.th.png ihCDWhj.th.png kIqcr0I.th.png kmMl6Hg.th.png PEE9XbZ.th.png sGqPZjk.th.png XTMQrbc.th.png zXEUN4e.th.png

Download ANT-MAN.2015.TS.XVID-EVE Yify

Mirror 1 (Online)
Download ANT-MAN.2015.TS.XVID-EVE Full Movie 720p & 1080p Brrip Yify Torrent
Download ANT-MAN.2015.TS.XVID-EVE Full Movie 720p & 1080p Brrip Yify Our Server
Download ANT-MAN.2015.TS.XVID-EVE Yify 720p & 1080p Brrip English Subtitle

Note : We randomly naming the file to prevent file deletion from the host. You’re downloading the right file!

Mission.Impossible.5.Rogue.Nation.2015.HDTS.Xvid-CRYS 720p & 1080p Brrip Yify and Subtitle

HGCujDr.md_.jpg



HGCujDr.md.jpg

Mission.Impossible.5.Rogue.Nation.2015.HDTS.Xvid.mp3-CRYS

General Information:

Complete name : Mission.Impossible.5.Rogue.Nation.2015.HDTS.Xvid.mp3-CRYS

Source : HQCAM LAT X264 AC3 (THX)

Format : AVI

File size : 1.06 GiB

Duration : 1h 59mn

Overall bit rate : 1 275 Kbps

Width : 720 pixels

Height : 336 pixels

Display aspect ratio : 2.143

Frame rate : 23.976 fps

Audio :

Source : Hive-CM8 (THX)

Format : MPEG Audio

Mode : Joint stereo

Mode extension : MS Stereo

Codec ID/Hint : MP3

Duration : 1h 59mn

Bit rate mode : Constant

Bit rate : 320 Kbps

Channel(s) : 2 channels

Sampling rate : 48.0 KHz

Release Notes:<br…

Download Mission.Impossible.5.Rogue.Nation.2015.HDTS.Xvid-CRYS Yify

Mirror 1 (Online)
Download Mission.Impossible.5.Rogue.Nation.2015.HDTS.Xvid-CRYS Full Movie 720p & 1080p Brrip Yify Torrent
Download Mission.Impossible.5.Rogue.Nation.2015.HDTS.Xvid-CRYS Full Movie 720p & 1080p Brrip Yify Our Server
Download Mission.Impossible.5.Rogue.Nation.2015.HDTS.Xvid-CRYS Yify 720p & 1080p Brrip English Subtitle

Note : We randomly naming the file to prevent file deletion from the host. You’re downloading the right file!

Mission Impossible 5 Rogue Nation HDTS XVID AC3-MRG 720p & 1080p Brrip Yify and Subtitle

XCV3R.jpg


XCV3R.jpg
Mission Impossible 5 Rogue Nation HDTS XVID AC3-MRG.avi

Audio : CM8 THNX
Format : AVI
Format/Info : Audio Video Interleave
File size : 1.77 GiB
Duration : 1h 59mn
Overall bit rate : 2 117 Kbps
Writing library : VirtualDub build 35491/release
Encoder : MURD3R

Video
ID : 0
Format : MPEG-4 Visual
Format profile : Advanced Simple@L5
Format settings, BVOP : 2
Format settings, QPel : No
Format settings, GMC : No warppoints
Format settings, Matrix : Default (H.263)
Muxing mode : Packed bitstream
Codec ID : XVID
Codec ID/Hint : XviD
Duration : 1h 59mn
Bit rate : 1 849 Kbps
Width : 720 pixels
Height : 360 pixels
Display aspect ratio : 2.000
Frame rate : 29.970 fps
Color space : YUV
Chroma subsampling : 4:2:0
Bit depth : 8 bits
Scan type : Progressive
Compression mode : Lossy
Bits/(Pixel*Frame) : 0.238
Stream size : 1.54 GiB (87%)
Writing library : XviD 67

Audio
ID : 1
Format : AC-3
Format/Info : Audio Coding 3
Mode extension : CM (complete main)
Format settings, Endianness : Big
Codec ID : 2000
Duration : 1h 59mn
Bit rate mode : Constant
Bit rate : 256 Kbps
Channel(s) : 2 channels
Channel positions : Front: L R
Sampling rate : 48.0 KHz
Compression mode : Lossy
Stream size : 219 MiB (12%)
Alignment : Split accross interleaves
Interleave, duration : 33 ms (1.00 video frame)
Interleave, preload duratio : 500 ms

MURD3Rvlcsnap-2015-08-02-10h18m21s902.th.png MURD3Rvlcsnap-2015-08-02-10h18m28s487.th.png MURD3Rvlcsnap-2015-08-02-10h18m32s646.th.png MURD3Rvlcsnap-2015-08-02-10h19m06s815.th.png MURD3Rvlcsnap-2015-08-02-10h19m42s829.th.png MURD3Rvlcsnap-2015-08-02-10h21m23s568.th.png MURD3Rvlcsnap-2015-08-02-10h22m09s898.th.png MURD3Rvlcsnap-2015-08-02-10h22m18s559.th.png MURD3Rvlcsnap-2015-08-02-10h22m41s668.th.png MURD3Rvlcsnap-2015-08-02-10h22m47s422.th.png

Download Mission Impossible 5 Rogue Nation HDTS XVID AC3-MRG Yify

Mirror 1 (Online)
Download Mission Impossible 5 Rogue Nation HDTS XVID AC3-MRG Full Movie 720p & 1080p Brrip Yify Torrent
Download Mission Impossible 5 Rogue Nation HDTS XVID AC3-MRG Full Movie 720p & 1080p Brrip Yify Our Server
Download Mission Impossible 5 Rogue Nation HDTS XVID AC3-MRG Yify 720p & 1080p Brrip English Subtitle

Note : We randomly naming the file to prevent file deletion from the host. You’re downloading the right file!

Mission.Impossible.5-Rogue.Nation.2015.HDTS.XVID.AC3.HQ.Hive-CM8 720p & 1080p Brrip Yify and Subtitle

CLLxrztUYAQ6oVp.jpg


CLLxrztUYAQ6oVp.jpg

http://www.imdb.com/title/tt2381249/

Ethan and team take on their most impossible mission yet, eradicating the Syndicate – an International rogue organization as highly skilled as they are, committed to destroying the IMF.

Director: Christopher McQuarrie
Writers: Christopher McQuarrie (screenplay), Christopher McQuarrie (story)
Stars: Tom Cruise, Rebecca Ferguson, Jeremy Renner
Genres: Action | Adventure | Thriller
Country: USA
Language: English

Mission.Impossible.5-Rogue.Nation.2015.HDTS.XVID.AC3.HQ.Hive-CM8

Thx Hive

CM8 Doing It Right The First Time

Sources:

Video: Spanish Source DVD-R thx Izzy
yep you guessed it vobs passed from a friend

Audio: Sweet Line Big Thx to S4NDM4N

Notes:

missing first 3min

The Perfect Day 1 Release! hot as hell
HDCam had Telecine quality, cant be done any better, bow to the cammer – i do hope we see more of this cammer
straight recording, no problems in this video at all, straight recording,no focus problems,nothing too dark,all was bright enough

Perfect Direct Line on Day 1, what more do you want, oh thats right haters hating for the sake of hating feel free to reencode anytime lol

Encode:

Video is nearly untouched, only added slightly sharpness
its not gonna get better than this

Audio sweet direct line as usual nothing to do either, lipsynced audio in 5mins, fitted right on it

will do me till retail, no need for a web-dl on this unless you like subs
enjoy

Video: 720×352 @bitrate 1700 2pass
Audio: English Line Stereo 2.0
Sample: yes 2 included

PS:

Still need a decent Antman Video, the ones out arent worth it

http://www.imdb.com/title/tt2381249/

General
Complete name: Mission.Impossible.5-Rogue.Nation.2015.HDTS.XVID.AC3.HQ.Hive-CM8.avi
Format: AVI
Format/Info: Audio Video Interleave
File size: 1.64 GiB
Duration: 1h 59mn
Overall bit rate: 1 968 Kbps
Writing application: Nandub v1.0rc2
Writing library: Nandub build 1853/release

Video
ID: 0
Format: MPEG-4 Visual
Format profile: Advanced Simple@L5
Format settings, BVOP: 2
Format settings, QPel: Yes
Format settings, GMC: No warppoints
Format settings, Matrix: Default (H.263)
Muxing mode: Packed bitstream
Codec ID: XVID
Codec ID/Hint: XviD
Duration: 1h 59mn
Bit rate: 1 701 Kbps
Width: 720 pixels
Height: 352 pixels
Display aspect ratio: 2.045
Frame rate: 29.970 fps
Color space: YUV
Chroma subsampling: 4:2:0
Bit depth: 8 bits
Scan type: Progressive
Compression mode: Lossy
Bits/(Pixel*Frame): 0.224
Stream size: 1.42 GiB (86%)
Writing library: XviD 1.2.1 (UTC 2008-12-04)

Audio
ID: 1
Format: AC-3
Format/Info: Audio Coding 3
Mode extension: CM (complete main)
Format settings, Endianness: Big
Codec ID: 2000
Duration: 1h 59mn
Bit rate mode: Constant
Bit rate: 256 Kbps
Channel(s): 2 channels
Channel positions: Front: L R
Sampling rate: 48.0 KHz
Bit depth: 16 bits
Compression mode: Lossy
Stream size: 219 MiB (13%)
Alignment: Split accross interleaves
Interleave, duration: 33 ms (1.00 video frame)
Interleave, preload duration: 500 ms

9rriv3.th.png ibyDGx.th.png iiy7Gb.th.png lsm4cz.th.png OeUu5X.th.png SCcfDj.th.png z6VnaF.th.png ZL19YG.th.png

Download Mission.Impossible.5-Rogue.Nation.2015.HDTS.XVID.AC3.HQ.Hive-CM8 Yify

Mirror 1 (Online)
Download Mission.Impossible.5-Rogue.Nation.2015.HDTS.XVID.AC3.HQ.Hive-CM8 Full Movie 720p & 1080p Brrip Yify Torrent
Download Mission.Impossible.5-Rogue.Nation.2015.HDTS.XVID.AC3.HQ.Hive-CM8 Full Movie 720p & 1080p Brrip Yify Our Server
Download Mission.Impossible.5-Rogue.Nation.2015.HDTS.XVID.AC3.HQ.Hive-CM8 Yify 720p & 1080p Brrip English Subtitle

Note : We randomly naming the file to prevent file deletion from the host. You’re downloading the right file!

Mission Impossible 5-Rogue Nation 2015 HDTS XVID AC3 HQ Hive-CM8 720p & 1080p Brrip Yify and Subtitle

55bd6196c104d.jpg


Mission Impossible 5-Rogue Nation 2015 HDTS XVID AC3 HQ Hive-CM8

Mission Impossible 5-Rogue Nation 2015 HDTS XVID AC3 HQ Hive-CM8

SIZE:…….. 1763117056 bytes (1.64 GiB),
DURATION:………… 01:59:25,
AVG-BITRATE:……… 1969 kb/s
AUDIO:……. ac3, 48000 Hz, stereo, 256 kb/s
VIDEO:……. mpeg4, yuv420p, 720×352, 29.97 fps(r)

Mission.Impossible.5-Rogue.Nation.2015.HDTS.XVID.AC3.HQ.Hive-CM8

Thx Hive

CM8 Doing It Right The First Time

Sources:

Video: Spanish Source DVD-R thx Izzy
yep you guessed it vobs passed from a friend

Audio: Sweet Line Big Thx to S4NDM4N

Notes:

The Perfect Day 1 Release! hot as hell
HDCam had Telecine quality, cant be done any better, bow to the cammer – i do hope we see more of this cammer
straight recording, no problems in this video at all, straight recording,no focus problems,nothing too dark,all was bright enough

Perfect Direct Line on Day 1, what more do you want, oh thats right haters hating for the sake of hating feel free to reencode anytime lol

Encode:

Video is nearly untouched, only added slightly sharpness
its not gonna get better than this

Audio sweet direct line as usual nothing to do either, lipsynced audio in 5mins, fitted right on it

will do me till retail, no need for a web-dl on this unless you like subs
enjoy

I KNOW YOU WANT IT
DOWNLOAD AND ENJOY.

Download Mission Impossible 5-Rogue Nation 2015 HDTS XVID AC3 HQ Hive-CM8 Yify

Mirror 1 (Online)
Download Mission Impossible 5-Rogue Nation 2015 HDTS XVID AC3 HQ Hive-CM8 Full Movie 720p & 1080p Brrip Yify Torrent
Download Mission Impossible 5-Rogue Nation 2015 HDTS XVID AC3 HQ Hive-CM8 Full Movie 720p & 1080p Brrip Yify Our Server
Download Mission Impossible 5-Rogue Nation 2015 HDTS XVID AC3 HQ Hive-CM8 Yify 720p & 1080p Brrip English Subtitle

Note : We randomly naming the file to prevent file deletion from the host. You’re downloading the right file!